Inicio   -   Ayuda   -   Contacto   -   Últimos Torrents

Torrents
Documentales842
Películas11256
Películas HD2068
Series1961
  Episodios22513
Series HD244
  Episodios2743
Juegos2689
  PC1736
Variados1521
  Deportes36
  Programas592
  Videoclips102
  Otros722
Música MP3 3525
Total Torrents57258

Información
Esta web no contiene ningún tipo de fichero almacenado.

Todos los archivos se comparten mediante el BitTorrent, un programa P2P de intercambio entre usuarios.



Descarga la última versión de uTorrent y baja a la máxima velocidad:
Lana Del Rey - Summertime Sadness
Total Descargas:  2.131 En Diciembre:  2.131

Fecha:  2016-10-08



Torrent:      Descargar         Tamaño:  49,89 MB
Descripción:

General Complete name : Lana Del Rey - Summertime Sadness (1080p)
x264 [VX] [P2PDL].mp4 Format : MPEG-4 Format profile : Base Media /
Version 2 Codec ID : mp42 File size : 45.0 MiB Duration : 4mn 42s Video
ID : 1 Format : AVC Codec ID/Info : Advanced Video Coding Duration :
4mn 42s Bit rate mode : Variable Bit rate : 1 200 Kbps Width : 1 920
pixels Height : 1 080 pixels Display aspect ratio : 16:9 Frame rate mode :
Constant Frame rate : 25.000 fps Color space : YUV Chroma subsampling
: 4:2:0 Bit depth : 8 bits Scan type : Progressive Bits/(Pixel*Frame) :
0.023 Stream size : 40.5 MiB (90%) Writing library : x264 core 128 Audio
ID : 2 Format : AAC Duration : 4mn 42s Bit rate mode : Variable Bit rate :
128 Kbps Channel(s) : 2 channels Channel positions : Front: L R Sampling
rate : 44.1 KHz Stream size : 4.32 MiB (10%) Subtitles : No



Volver al índice de Variados







Datos legales


22:43:56
computer