fortsquarehomestay.com
Inicio   -   Ayuda   -   Contacto   -   Últimos Torrents

Torrents
Documentales842
Películas11256
Películas HD2068
Series1961
  Episodios22513
Series HD244
  Episodios2743
Juegos2689
  PC1736
Variados1521
  Deportes36
  Programas592
  Videoclips102
  Otros722
Música MP3 3525
Total Torrents57258

Información
Esta web no contiene ningún tipo de fichero almacenado.

Todos los archivos se comparten mediante el BitTorrent, un programa P2P de intercambio entre usuarios.



Descarga la última versión de uTorrent y baja a la máxima velocidad:
Beyoncé - I AM... World Tour
Total Descargas:  5.222 En Diciembre:  5.222

Fecha:  2016-09-22



Torrent:      Descargar         Tamaño:  955,69 MB
Descripción:

General
Complete name : Beyonce I Am World Tour 2010 BRRip 720p x264 AAC - PRiSTiNE.mp4
Format : MPEG-4
Format profile : Base Media / Version 2
Codec ID : mp42
File size : 945 MiB
Duration : 1h 39mn
Overall bit rate mode : Variable
Overall bit rate : 1 335 Kbps

Video
Format : AVC
Bit rate : 1 250 Kbps
Width : 1 280 pixels
Height : 720 pixels
Display aspect ratio : 16:9
Frame rate mode : Variable
Frame rate : 23.976 fps
Scan type : Progressive
Bits/(Pixel*Frame) : 0.057
Stream size : 885 MiB (94%)
Writing library : x264 core 129

Audio
Format : AAC
Bit rate : 79.9 Kbps
Channel(s) : 2 channels
Channel positions : Front: L R
Sampling rate : 48.0 KHz
Stream size : 56.6 MiB (6%)



Volver al índice de Variados







Datos legales


07:27:42
computer