Inicio   -   Ayuda   -   Contacto   -   Últimos Torrents

Torrents
Documentales842
Películas11256
Películas HD2068
Series1961
  Episodios22513
Series HD244
  Episodios2743
Juegos2689
  PC1736
Variados1521
  Deportes36
  Programas592
  Videoclips102
  Otros722
Música MP3 3525
Total Torrents57258

Información
Esta web no contiene ningún tipo de fichero almacenado.

Todos los archivos se comparten mediante el BitTorrent, un programa P2P de intercambio entre usuarios.



Descarga la última versión de uTorrent y baja a la máxima velocidad:
Sia - Chandelier
Total Descargas:  5.612 En Diciembre:  5.612

Fecha:  2016-05-10



Torrent:      Descargar         Tamaño:  76,56 MB
Descripción:

General
Complete name : Sia - Chandelier [Music Video] 1080p.MP4
Format : MPEG-4
Format profile : Base Media
Codec ID : isom
File size : 76.6 MiB
Duration : 3mn 51s
Overall bit rate mode : Variable
Overall bit rate : 2 776 Kbps
Encoded date : UTC 2014-05-01 18:56:11
Tagged date : UTC 2014-05-01 18:56:11

Video
ID : 1
Format : AVC
Format/Info : Advanced Video Codec
Format profile : High@L4.0
Format settings, CABAC : Yes
Format settings, ReFrames : 2 frames
Codec ID : avc1
Codec ID/Info : Advanced Video Coding
Duration : 3mn 51s
Bit rate : 2 646 Kbps
Width : 1 920 pixels
Height : 1 080 pixels
Display aspect ratio : 16:9
Frame rate mode : Variable
Frame rate : 23.976 fps
Minimum frame rate : 23.974 fps
Maximum frame rate : 24.220 fps
Color space : YUV
Chroma subsampling : 4:2:0
Bit depth : 8 bits
Scan type : Progressive
Bits/(Pixel*Frame) : 0.053
Stream size : 73.0 MiB (95%)
Encoded date : UTC 2014-05-01 18:56:11
Tagged date : UTC 2014-05-01 18:56:11

Audio
ID : 2
Format : AAC
Format/Info : Advanced Audio Codec
Format profile : LC
Codec ID : 40
Duration : 3mn 51s
Bit rate mode : Variable
Bit rate : 126 Kbps
Channel(s) : 2 channels
Channel positions : Front: L R
Sampling rate : 44.1 KHz
Compression mode : Lossy
Stream size : 3.46 MiB (5%)
Encoded date : UTC 2014-05-01 18:56:11
Tagged date : UTC 2014-05-01 18:56:11



Volver al índice de Variados







Datos legales


01:18:35
computer